Results 1 to 1 of 1
  1. #1
    Tham mưu trưởng PDFA Nội công thâm hậu
    Join Date
    Oct 2010
    Posts
    2,097
    Thanks
    843
    Thanked
    5,828 / 1,439

    [Tâm lư | Tội phạm] Breaking Bad Season 5 720p WEBDL DD5.1 x264 CtrlHD


    Kết thúc Season 4, thầy tṛ White đă xử lư xong mối đe dọa từ bố già Gus Fring và thiêu hủy toàn bộ pḥng thí nghiệm điều chế đá. Liệu mọi nguy hiểm đă buông tha cho thầy tṛ và gia đ́nh của Walter White? White sẽ không c̣n gặp nguy hiểm hay sẽ trở thành mối nguy hiểm? Tất cả sẽ được giải đáp trong phần cuối cùng của series truyền h́nh đặc sắc này.
    General
    Unique ID : 210117897761547327341647161768395198602 (0x9E133C30803F29269BB5508956FCD08A)
    Complete name : C:\Source\Breaking.Bad.S05E01.Live.Free.or.Die.720 p.WEB-DL.DD5.1.H.264-CtrlHD.mkv
    Format : Matroska
    Format version : Version 2
    File size : 1.36 GiB
    Duration : 42mn 55s
    Overall bit rate : 4 531 Kbps
    Encoded date : UTC 2012-07-16 08:01:22
    Writing application : mkvmerge v5.7.0 ('The Whirlwind') built on Jul 8 2012 20:08:51
    Writing library : libebml v1.2.3 + libmatroska v1.3.0

    Video
    ID : 1
    Format : AVC
    Format/Info : Advanced Video Codec
    Format profile : High@L3.1
    Format settings, CABAC : No
    Format settings, ReFrames : 2 frames
    Codec ID : V_MPEG4/ISO/AVC
    Duration : 42mn 55s
    Bit rate : 4 057 Kbps
    Width : 1 280 pixels
    Height : 720 pixels
    Display aspect ratio : 16:9
    Frame rate : 23.976 fps
    Color space : YUV
    Chroma subsampling : 4:2:0
    Bit depth : 8 bits
    Scan type : Progressive
    Bits/(Pixel*Frame) : 0.184
    Stream size : 1.22 GiB (90%)
    Language : English
    Default : Yes
    Forced : No
    Color primaries : BT.709-5, BT.1361, IEC 61966-2-4, SMPTE RP177
    Transfer characteristics : BT.709-5, BT.1361
    Matrix coefficients : BT.709-5, BT.1361, IEC 61966-2-4 709, SMPTE RP177

    Audio
    ID : 2
    Format : AC-3
    Format/Info : Audio Coding 3
    Mode extension : CM (complete main)
    Format settings, Endianness : Big
    Codec ID : A_AC3
    Duration : 42mn 55s
    Bit rate mode : Constant
    Bit rate : 384 Kbps
    Channel(s) : 6 channels
    Channel positions : Front: L C R, Side: L R, LFE
    Sampling rate : 48.0 KHz
    Bit depth : 16 bits
    Compression mode : Lossy
    Stream size : 118 MiB (8%)
    Language : English
    Default : Yes
    Forced : No








    I'm bad, and that's good.



    To view links or images in signatures your post count must be 10 or greater. You currently have 0 posts.


    To view links or images in signatures your post count must be 10 or greater. You currently have 0 posts.
    I will never be good, and that's not bad.

  2. The Following 8 Users Say Thank You to Federale For This Useful Post:

     angel_of_dead (01-11-2015), freemanvn (10-06-2012), hdbluray (09-06-2012), nhungong (09-02-2012), nickytun (08-31-2012), oGSt1l3 (10-31-2014), vutuquan (02-25-2015), xiaomei5277 (09-14-2012)

 

 

Thread Information

Users Browsing this Thread

There are currently 1 users browsing this thread. (0 members and 1 guests)

Similar Threads

  1. Replies: 118
    Last Post: 05-03-2013, 10:27 PM
  2. Replies: 431
    Last Post: 02-17-2013, 12:36 AM
  3. [XONG] Breaking News 2004 mHD x264 AC3-WAF | Đại sự kiện
    By xiaomei5277 in forum Phim điện ảnh
    Replies: 4
    Last Post: 07-15-2012, 02:53 PM
  4. Replies: 4
    Last Post: 07-14-2012, 06:31 PM

User Tag List

Posting Permissions

  • You may not post new threads
  • You may not post replies
  • You may not post attachments
  • You may not edit your posts
  •