Results 1 to 6 of 6
  1. #1
    Thành viên Cần phải rèn luyện
    Join Date
    Apr 2014
    Posts
    146
    Thanks
    3
    Thanked
    52 / 44

    [Fshare] Tổng hợp giải đua xe Isle of Man TT Race 1080p/720p Bluray, HDTV



    Isle of Man là một ḥn đảo nằm trên biển Ireland, ở ngay giữa đảo Anh và đảo Ireland. Trên đảo có nhiều đường nhỏ hẹp và lắt léo, nên đă thu hút những người mê đua xe t́m đến thử sức. Giải đua TT trên đảo Isle of Man đă bắt đầu từ năm 1907, được công nhận là "giải đua mô tô hấp dẫn nhất trên thế giới" và đến nay vẫn tiếp tục được tổ chức thường niên.



    Cuộc đua Isle of Man TT nổi tiếng chủ yếu v́ tốc độ trung b́nh của các tay đua thường ở mức rất cao: từ 170 đến 200 km/h. Tốc độ tối đa nhiều khi có thể lên đến tầm 300 km/h.



    Chính v́ đua với tốc độ cực cao, lại trên một địa h́nh có nhiều thử thách từ những khúc cua gắt, đường có bề rộng ngắn và gồ ghề, nên những ai tham gia cuộc đua đều có thần kinh thép cũng như kỹ thuật xử lư xe mô tô thể thao vào hàng lăo luyện. Đó cũng là lư do để Isle of Man TT nổi bật hơn rất nhiều các cuộc đua mô tô khác, kể cả MotoGP. Nhưng điều đó cũng đồng nghĩa với việc, cuộc đua này là cuộc đua nguy hiểm bậc nhất thế giới.



    Hàng năm giải đua này được tổ chức đều đặn với nhiều thể loại như:

    Superbike TT
    Supersport
    Superstock
    Sidecar



    Bộ phim kinh điển dưới đây dưới sự dẫn dắt của Guy Martin (và cũng là 1 tay đua nổi tiếng của giải) sẽ giúp các bạn hiểu rơ về giải đua xe này

    TT.Closer.To.The.Edge.2011.720p.Bluray.DTS.x264-Nodlabs


    Format                           : Matroska
    File size : 4.37 GiB
    Duration : 1h 43mn
    Overall bit rate : 6 041 Kbps

    Video
    ID : 1
    Format : AVC
    Format/Info : Advanced Video Codec
    Format profile : High@L4.1
    Format settings, CABAC : Yes
    Format settings, ReFrames : 5 frames
    Format settings, GOP : M=1, N=28
    Codec ID : V_MPEG4/ISO/AVC
    Duration : 1h 43mn
    Bit rate : 4 530 Kbps
    Width : 1 280 pixels
    Height : 696 pixels

    Audio
    ID : 2
    Format : DTS
    Format/Info : Digital Theater Systems
    Codec ID : A_DTS
    Duration : 1h 43mn
    Bit rate mode : Constant
    Bit rate : 1 510 Kbps
    Channel(s) : 6 channels

    Text
    ID : 3
    Format : UTF-8
    Codec ID : S_TEXT/UTF8
    Codec ID/Info : UTF-8 Plain Text
    Language : English



    Last edited by b.a.n.n.e.r; 06-02-2014 at 04:29 PM.

  2. #2
    Thành viên Cần phải rèn luyện
    Join Date
    Apr 2014
    Posts
    146
    Thanks
    3
    Thanked
    52 / 44
    Isle of Man TT Race 2014

    Superbike TT Race 720p ITV4HD




    Format                           : MPEG-4
    Format profile : Base Media / Version 2
    Codec ID : mp42
    File size : 1.65 GiB
    Duration : 45mn 25s
    Overall bit rate : 5 215 Kbps
    Encoded date : UTC 2014-06-01 07:40:49
    Tagged date : UTC 2014-06-01 08:29:47
    Writing application : HandBrake 0.9.9 2013051800

    Video
    ID : 1
    Format : AVC
    Format/Info : Advanced Video Codec
    Format profile : High@L3.1
    Format settings, CABAC : Yes
    Format settings, ReFrames : 5 frames
    Codec ID : avc1
    Codec ID/Info : Advanced Video Coding
    Duration : 45mn 25s
    Bit rate mode : Variable
    Bit rate : 4 911 Kbps
    Width : 1 280 pixels
    Height : 720 pixels
    Display aspect ratio : 16:9
    Frame rate mode : Constant
    Frame rate : 25.000 fps
    Color space : YUV
    Chroma subsampling : 4:2:0
    Bit depth : 8 bits
    Scan type : Progressive
    Bits/(Pixel*Frame) : 0.213
    Stream size : 1.56 GiB (94%)
    Writing library : x264 core 130 r2273 b3065e6
    Encoding settings : cabac=1 / ref=5 / deblock=1:0:0 / analyse=0x3:0x113 / me=umh / subme=8 / psy=1 / psy_rd=1.00:0.00 / mixed_ref=1 / me_range=16 / chroma_me=1 / trellis=1 / 8x8dct=1 / cqm=0 / deadzone=21,11 / fast_pskip=1 / chroma_qp_offset=-2 / threads=12 / lookahead_threads=2 / sliced_threads=0 / nr=0 / decimate=1 / interlaced=0 / bluray_compat=0 / constrained_intra=0 / bframes=3 / b_pyramid=2 / b_adapt=2 / b_bias=0 / direct=3 / weightb=1 / open_gop=0 / weightp=2 / keyint=250 / keyint_min=25 / scenecut=40 / intra_refresh=0 / rc_lookahead=50 / rc=crf / mbtree=1 / crf=18.0 / qcomp=0.60 / qpmin=0 / qpmax=69 / qpstep=4 / vbv_maxrate=17500 / vbv_bufsize=17500 / crf_max=0.0 / nal_hrd=none / ip_ratio=1.40 / aq=1:1.00
    Encoded date : UTC 2014-06-01 07:40:49
    Tagged date : UTC 2014-06-01 08:29:47
    Color primaries : BT.709-5, BT.1361, IEC 61966-2-4, SMPTE RP177
    Transfer characteristics : BT.709-5, BT.1361
    Matrix coefficients : BT.709-5, BT.1361, IEC 61966-2-4 709, SMPTE RP177

    Audio
    ID : 2
    Format : AAC
    Format/Info : Advanced Audio Codec
    Format profile : LC
    Codec ID : 40
    Duration : 45mn 25s
    Bit rate mode : Variable
    Bit rate : 299 Kbps
    Maximum bit rate : 390 Kbps
    Channel(s) : 2 channels
    Channel positions : Front: L R
    Sampling rate : 48.0 KHz
    Compression mode : Lossy
    Stream size : 97.3 MiB (6%)
    Encoded date : UTC 2014-06-01 07:40:49
    Tagged date : UTC 2014-06-01 08:29:47


    Last edited by b.a.n.n.e.r; 06-02-2014 at 07:44 PM.

  3. #3
    Thành viên Cần phải rèn luyện
    Join Date
    Apr 2014
    Posts
    146
    Thanks
    3
    Thanked
    52 / 44
    Sidecar 2014 Race 01 ITV4HD.720p




    Format                           : MPEG-4
    Format profile : Base Media / Version 2
    Codec ID : mp42
    File size : 1.84 GiB
    Duration : 45mn 25s
    Overall bit rate : 5 798 Kbps
    Encoded date : UTC 2014-06-01 21:09:21
    Tagged date : UTC 2014-06-01 22:16:17
    Writing application : HandBrake 0.9.9 2013052900

    Video
    ID : 1
    Format : AVC
    Format/Info : Advanced Video Codec
    Format profile : High@L3.1
    Format settings, CABAC : Yes
    Format settings, ReFrames : 5 frames
    Codec ID : avc1
    Codec ID/Info : Advanced Video Coding
    Duration : 45mn 25s
    Bit rate mode : Variable
    Bit rate : 5 473 Kbps
    Width : 1 280 pixels
    Height : 720 pixels
    Display aspect ratio : 16:9
    Frame rate mode : Constant
    Frame rate : 25.000 fps
    Color space : YUV
    Chroma subsampling : 4:2:0
    Bit depth : 8 bits
    Scan type : Progressive
    Bits/(Pixel*Frame) : 0.238
    Stream size : 1.74 GiB (94%)
    Writing library : x264 core 130 r2273 b3065e6

    Audio
    ID : 2
    Format : AAC
    Format/Info : Advanced Audio Codec
    Format profile : LC
    Codec ID : 40
    Duration : 45mn 25s
    Bit rate mode : Variable
    Bit rate : 320 Kbps
    Maximum bit rate : 383 Kbps
    Channel(s) : 2 channels
    Channel positions : Front: L R
    Sampling rate : 48.0 KHz
    Compression mode : Lossy
    Stream size : 104 MiB (6%)
    Encoded date : UTC 2014-06-01 21:09:21
    Tagged date : UTC 2014-06-01 22:16:16



  4. #4
    Thành viên Cần phải rèn luyện
    Join Date
    Apr 2014
    Posts
    146
    Thanks
    3
    Thanked
    52 / 44
    Đua phân hạng



    Format                           : MPEG-4
    Format profile : Base Media / Version 2
    Codec ID : mp42
    File size : 1.41 GiB
    Duration : 45mn 24s
    Overall bit rate : 4 460 Kbps
    Encoded date : UTC 2014-05-30 22:18:03
    Tagged date : UTC 2014-05-30 23:14:01
    Writing application : HandBrake 0.9.9 2013052900

    Video
    ID : 1
    Format : AVC
    Format/Info : Advanced Video Codec
    Format profile : High@L3.1
    Format settings, CABAC : Yes
    Format settings, ReFrames : 5 frames
    Codec ID : avc1
    Codec ID/Info : Advanced Video Coding
    Duration : 45mn 24s
    Bit rate mode : Variable
    Bit rate : 4 140 Kbps
    Width : 1 280 pixels
    Height : 720 pixels
    Display aspect ratio : 16:9
    Frame rate mode : Constant
    Frame rate : 25.000 fps
    Color space : YUV
    Chroma subsampling : 4:2:0
    Bit depth : 8 bits
    Scan type : Progressive
    Bits/(Pixel*Frame) : 0.180
    Stream size : 1.31 GiB (93%)
    Writing library : x264 core 130 r2273 b3065e6

    Audio
    ID : 2
    Format : AAC
    Format/Info : Advanced Audio Codec
    Format profile : LC
    Codec ID : 40
    Duration : 45mn 24s
    Bit rate mode : Variable
    Bit rate : 315 Kbps
    Maximum bit rate : 397 Kbps
    Channel(s) : 2 channels
    Channel positions : Front: L R
    Sampling rate : 48.0 KHz
    Compression mode : Lossy
    Stream size : 102 MiB (7%)
    Encoded date : UTC 2014-05-30 22:18:03
    Tagged date : UTC 2014-05-30 23:14:00



  5. #5
    Thành viên Cần phải rèn luyện
    Join Date
    Apr 2014
    Posts
    146
    Thanks
    3
    Thanked
    52 / 44
    Isle of Man TT 2014 Monster Energy Supersport TT Race 01 ITV4HD 720p



    Format                           : MPEG-4
    Format profile : Base Media / Version 2
    Codec ID : mp42
    File size : 1.59 GiB
    Duration : 45mn 26s
    Overall bit rate : 5 005 Kbps
    Encoded date : UTC 2014-06-02 21:128
    Tagged date : UTC 2014-06-02 22:00:15
    Writing application : HandBrake 0.9.9 2013051800

    Video
    ID : 1
    Format : AVC
    Format/Info : Advanced Video Codec
    Format profile : High@L3.1
    Format settings, CABAC : Yes
    Format settings, ReFrames : 5 frames
    Codec ID : avc1
    Codec ID/Info : Advanced Video Coding
    Duration : 45mn 26s
    Bit rate mode : Variable
    Bit rate : 4 704 Kbps
    Width : 1 280 pixels
    Height : 720 pixels
    Display aspect ratio : 16:9
    Frame rate mode : Constant
    Frame rate : 25.000 fps
    Color space : YUV
    Chroma subsampling : 4:2:0
    Bit depth : 8 bits
    Scan type : Progressive
    Bits/(Pixel*Frame) : 0.204
    Stream size : 1.49 GiB (94%)
    Writing library : x264 core 130 r2273 b3065e6

    Audio
    ID : 2
    Format : AAC
    Format/Info : Advanced Audio Codec
    Format profile : LC
    Codec ID : 40
    Duration : 45mn 25s
    Bit rate mode : Variable
    Bit rate : 296 Kbps
    Maximum bit rate : 367 Kbps
    Channel(s) : 2 channels
    Channel positions : Front: L R
    Sampling rate : 48.0 KHz
    Compression mode : Lossy
    Stream size : 96.3 MiB (6%)
    Encoded date : UTC 2014-06-02 21:128
    Tagged date : UTC 2014-06-02 22:00:15
    [LABELFSHARE][/LABELFSHARE]

  6. #6
    Thành viên Cần phải rèn luyện
    Join Date
    Apr 2014
    Posts
    146
    Thanks
    3
    Thanked
    52 / 44
    Superstock 2014 TT Race ITV4HD 720p



    Format                           : MPEG-4
    Format profile : Base Media / Version 2
    Codec ID : mp42
    File size : 1.72 GiB
    Duration : 45mn 24s
    Overall bit rate : 5 432 Kbps
    Encoded date : UTC 2014-06-03 21:07:55
    Tagged date : UTC 2014-06-03 22:10:17
    Writing application : HandBrake 0.9.9 2013052900

    Video
    ID : 1
    Format : AVC
    Format/Info : Advanced Video Codec
    Format profile : High@L3.1
    Format settings, CABAC : Yes
    Format settings, ReFrames : 5 frames
    Codec ID : avc1
    Codec ID/Info : Advanced Video Coding
    Duration : 45mn 24s
    Bit rate mode : Variable
    Bit rate : 5 111 Kbps
    Width : 1 280 pixels
    Height : 720 pixels
    Display aspect ratio : 16:9
    Frame rate mode : Constant
    Frame rate : 25.000 fps
    Color space : YUV
    Chroma subsampling : 4:2:0
    Bit depth : 8 bits
    Scan type : Progressive
    Bits/(Pixel*Frame) : 0.222
    Stream size : 1.62 GiB (94%)
    Writing library : x264 core 130 r2273 b3065e6

    Audio
    ID : 2
    Format : AAC
    Format/Info : Advanced Audio Codec
    Format profile : LC
    Codec ID : 40
    Duration : 45mn 24s
    Bit rate mode : Variable
    Bit rate : 316 Kbps
    Maximum bit rate : 384 Kbps
    Channel(s) : 2 channels
    Channel positions : Front: L R
    Sampling rate : 48.0 KHz
    Compression mode : Lossy
    Stream size : 102 MiB (6%)
    Encoded date : UTC 2014-06-03 21:07:55
    Tagged date : UTC 2014-06-03 22:10:16



 

 

Thread Information

Users Browsing this Thread

There are currently 1 users browsing this thread. (0 members and 1 guests)

Similar Threads

  1. [Fshare] Tổng hợp các chặng đua F1 mùa giải 2014 - HDTV 720p 50fps
    By b.a.n.n.e.r in forum Các Môn Thể Thao Khác
    Replies: 15
    Last Post: 08-04-2014, 02:15 PM
  2. Replies: 8
    Last Post: 07-24-2014, 04:31 PM
  3. [Fshare] Tổng hợp Highlight các chặng đua F1
    By b.a.n.n.e.r in forum Các Môn Thể Thao Khác
    Replies: 34
    Last Post: 04-28-2014, 03:09 PM
  4. Replies: 1
    Last Post: 08-18-2012, 12:29 PM
  5. Replies: 1
    Last Post: 07-07-2012, 05:14 PM

User Tag List

Posting Permissions

  • You may not post new threads
  • You may not post replies
  • You may not post attachments
  • You may not edit your posts
  •