Results 1 to 1 of 1
  1. #1
    Thnh vin t xai trnh tả
    Join Date
    Mar 2013
    Posts
    417
    Thanks
    15
    Thanked
    181 / 130

    Talking [Kinh dị|1 Link] Evil Dead 2: Dead By Dawn 1987 720p BluRay x264-SiNNERS - Ma cy

    Evil Dead 2: Dead By Dawn 1987 720p BluRay x264-SiNNERS


    IMDb




    General
    Format : Matroska
    Format version : Version 1
    File size : 4.37 GiB
    Duration : 1h 24mn
    Overall bit rate : 7 433 Kbps
    Encoded date : UTC 2007-10-06 217:54
    Writing application : mkvmerge v2.1.0 ('Another Place To Fall') built on Aug 19 2007 13:40:07
    Writing library : libebml v0.7.7 + libmatroska v0.8.1

    Video #1
    ID : 1
    Format : AVC
    Format/Info : Advanced Video Codec
    Format profile : High@L5.1
    Format settings, CABAC : Yes
    Format settings, ReFrames : 8 frames
    Codec ID : V_MPEG4/ISO/AVC
    Duration : 1h 24mn
    Bit rate : 6 800 Kbps
    Width : 1 280 pixels
    Height : 688 pixels
    Display aspect ratio : 1.85:1
    Frame rate mode : Constant
    Frame rate : 23.976 fps
    Color space : YUV
    Chroma subsampling : 4:2:0
    Bit depth : 8 bits
    Scan type : Progressive
    Bits/(Pixel*Frame) : 0.322
    Stream size : 3.91 GiB (89%)
    Writing library : x264 core 56 svn-680
    Encoding settings : cabac=1 / ref=5 / deblock=1:0:0 / analyse=0x3:0x113 / me=umh / subme=7 / brdo=1 / mixed_ref=1 / me_range=16 / chroma_me=1 / trellis=1 / 8x8dct=1 / cqm=0 / deadzone=21,11 / chroma_qp_offset=0 / threads=6 / nr=0 / decimate=1 / mbaff=0 / bframes=3 / b_pyramid=1 / b_adapt=1 / b_bias=0 / direct=1 / wpredb=1 / bime=1 / keyint=250 / keyint_min=25 / scenecut=40(pre) / rc=2pass / bitrate=6800 / ratetol=1.0 / rceq='blurCplx^(1-qComp)' / qcomp=0.60 / qpmin=10 / qpmax=51 / qpstep=4 / cplxblur=20.0 / qblur=0.5 / ip_ratio=1.40 / pb_ratio=1.30
    Language : English
    Default : Yes
    Forced : No

    Audio #2
    ID : 2
    Format : AC-3
    Format/Info : Audio Coding 3
    Mode extension : CM (complete main)
    Format settings, Endianness : Big
    Codec ID : A_AC3
    Duration : 1h 24mn
    Bit rate mode : Constant
    Bit rate : 640 Kbps
    Channel(s) : 6 channels
    Channel positions : Front: L C R, Side: L R, LFE
    Sampling rate : 48.0 KHz
    Bit depth : 16 bits
    Compression mode : Lossy
    Stream size : 386 MiB (9%)
    Default : Yes
    Forced : No


    Ash cng c bạn gi Linda đến nghỉ mt tại ngi nh gỗ trong một khu rừng. Ash v tnh mở lại cuốn băng của vị gio sư, chủ nhn qu cố của ngi nh. Đ chnh l cu thần ch từ Quyển sch của người chết (Book of the Dead) giải thot cho thể lực quỷ dữ trong rừng.

    Chng biến Linda trở thnh ma (deadite). Khi ấy, Annie, con gi của gio sư trở về cng bạn trai & những người dẫn đường. Họ & Ash phải chiến đấu để c thể sống st. Khi Annie đọc cu thần ch để tống khứ c quỷ, Ash bị cuốn trở về qu khứ...







    Bn acc fshare gi rẻ, Call: 0973. 0168. 78, Mr. Phc. Face:
    To view links or images in signatures your post count must be 10 or greater. You currently have 0 posts.

  2. The Following User Says Thank You to princephuc For This Useful Post:

     NINI1219 (09-09-2013)

 

 

Thread Information

Users Browsing this Thread

There are currently 1 users browsing this thread. (0 members and 1 guests)

Similar Threads

  1. Replies: 5
    Last Post: 08-15-2014, 09:17 AM
  2. Replies: 3
    Last Post: 12-20-2013, 01:01 PM
  3. Replies: 0
    Last Post: 07-04-2013, 03:41 PM
  4. Replies: 0
    Last Post: 07-03-2013, 11:11 AM
  5. Replies: 0
    Last Post: 07-03-2013, 02:29 AM

User Tag List

Posting Permissions

  • You may not post new threads
  • You may not post replies
  • You may not post attachments
  • You may not edit your posts
  •