Page 1 of 2 12 LastLast
Results 1 to 10 of 12
  1. #1
    Nh Ti trợ Cần phải rn luyện
    Join Date
    Sep 2012
    Posts
    111
    Thanks
    62
    Thanked
    182 / 61

    [Tm l | Kinh dị | 1 Link/1 tập] 666 Park Avenue (2012) S01 720p HDTV x264 - 666 Đại Lộ Park

    666 Park Avenue (2012) S01 720p HDTV x264 - 666 Đại Lộ Park



    Complete name : 666.Park.Avenue.S01E01.720p.HDTV.X264-DIMENSION.mkv
    Format : Matroska
    Format version : Version 2
    File size : 1.16 GiB
    Duration : 42mn 44s
    Overall bit rate : 3 898 Kbps
    Encoded date : UTC 2012-09-30 20:27:55
    Writing application : mkvmerge v3.1.0 ('Happy up here') built on Jan 19 2010 12:09:24
    Writing library : libebml v0.7.9 + libmatroska v0.8.1
    Video #1
    ID : 1
    Format : AVC
    Format/Info : Advanced Video Codec
    Format profile : High@L4.1
    Format settings, CABAC : Yes
    Format settings, ReFrames : 8 frames
    Codec ID : V_MPEG4/ISO/AVC
    Duration : 42mn 44s
    Bit rate : 3 437 Kbps
    Width : 1 280 pixels
    Height : 720 pixels
    Display aspect ratio : 16:9
    Frame rate : 23.976 fps
    Color space : YUV
    Chroma subsampling : 4:2:0
    Bit depth : 8 bits
    Scan type : Progressive
    Bits/(Pixel*Frame) : 0.156
    Stream size : 1.03 GiB (88%)
    Writing library : x264 core 128 r2216 198a7ea
    Language : English
    Default : No
    Forced : No
    Audio #2
    ID : 2
    Format : AC-3
    Format/Info : Audio Coding 3
    Mode extension : CM (complete main)
    Format settings, Endianness : Big
    Codec ID : A_AC3
    Duration : 42mn 44s
    Bit rate mode : Constant
    Bit rate : 384 Kbps
    Channel(s) : 2 channels
    Channel positions : Front: L R
    Sampling rate : 48.0 KHz
    Bit depth : 16 bits
    Compression mode : Lossy
    Stream size : 117 MiB (10%)
    Default : Yes
    Forced : No


    Last edited by qhthbc; 12-04-2012 at 05:39 PM.

  2. The Following 6 Users Say Thank You to qhthbc For This Useful Post:

     an khang (10-14-2012), davidseanghia (10-09-2012), Federale (10-09-2012), Jen_legendary (10-09-2012), namelis (10-09-2012), ngbthang (10-11-2012)

  3. #2
    Nh Ti trợ Cần phải rn luyện
    Join Date
    Sep 2012
    Posts
    111
    Thanks
    62
    Thanked
    182 / 61
    Last edited by qhthbc; 10-09-2012 at 07:43 PM.

  4. The Following User Says Thank You to qhthbc For This Useful Post:

     Jen_legendary (10-09-2012)

  5. #3
    Nh Ti trợ Cần phải rn luyện
    Join Date
    Sep 2012
    Posts
    111
    Thanks
    62
    Thanked
    182 / 61
    đ c tập 2, mời cc bc!

  6. The Following User Says Thank You to qhthbc For This Useful Post:

     Jen_legendary (10-09-2012)

  7. #4
    Dịch giả PDV Tương lai hứa hẹn
    Join Date
    Jun 2012
    Location
    H Nội
    Posts
    207
    Thanks
    152
    Thanked
    609 / 105
    Thanks bạn @qhthbc nh

    To view links or images in signatures your post count must be 10 or greater. You currently have 0 posts.

    _I'm a TV addict_


    To view links or images in signatures your post count must be 10 or greater. You currently have 0 posts.

  8. #5
    Nh Ti trợ Cần phải rn luyện
    Join Date
    Sep 2012
    Posts
    111
    Thanks
    62
    Thanked
    182 / 61

    Phụ đề việt của bản LOL khớp với phim bản DIMENSION

  9. The Following 2 Users Say Thank You to qhthbc For This Useful Post:

     Jen_legendary (10-11-2012), nhungong (10-15-2012)

  10. #6
    Nh Ti trợ Cần phải rn luyện
    Join Date
    Sep 2012
    Posts
    111
    Thanks
    62
    Thanked
    182 / 61
    đ c tập 3, mời cc bc

  11. The Following User Says Thank You to qhthbc For This Useful Post:

     nhungong (10-31-2012)

  12. #7
    Nh Ti trợ Cần phải rn luyện
    Join Date
    Sep 2012
    Posts
    111
    Thanks
    62
    Thanked
    182 / 61
    đ c tập 4, 5

  13. The Following User Says Thank You to qhthbc For This Useful Post:

     nhungong (10-31-2012)

  14. #8
    Nh Ti trợ Cần phải rn luyện
    Join Date
    Sep 2012
    Posts
    111
    Thanks
    62
    Thanked
    182 / 61
    đ c tập 6, mời cc bạn

  15. The Following User Says Thank You to qhthbc For This Useful Post:

     nhungong (11-06-2012)

  16. #9
    Nh Ti trợ Cần phải rn luyện
    Join Date
    Sep 2012
    Posts
    111
    Thanks
    62
    Thanked
    182 / 61
    đ c tập 7, mời cc bạn

  17. #10
    Nh Ti trợ Cần phải rn luyện
    Join Date
    Sep 2012
    Posts
    111
    Thanks
    62
    Thanked
    182 / 61
    đ c tập 8, mời cc bạn

 

 

Thread Information

Users Browsing this Thread

There are currently 1 users browsing this thread. (0 members and 1 guests)

Similar Threads

  1. [XONG] [TV Series] 666 Park Avenue (666 Đại Lộ Park) [ Season 1 | Tập 13/13 ]
    By Jen_legendary in forum Phim truyền hnh
    Replies: 157
    Last Post: 09-01-2013, 07:43 PM
  2. Replies: 0
    Last Post: 08-25-2012, 11:22 AM
  3. Replies: 6
    Last Post: 08-09-2012, 12:16 PM

User Tag List

Posting Permissions

  • You may not post new threads
  • You may not post replies
  • You may not post attachments
  • You may not edit your posts
  •