PDA

View Full Version : [FSHARE] Tổng hợp cc chặng đua F1 ma giải 2010 (BBC, BBCOneHD, OneHD)



b.a.n.n.e.r
05-30-2014, 11:20 AM
Round 01 Australia

http://i.imgur.com/zaJGGtD.jpg
http://i.imgur.com/FqCFGiX.jpg

Format : MPEG-4
Format profile : Base Media
Codec ID : isom
File size : 1.38 GiB
Duration : 2h 4mn
Overall bit rate : 1 596 Kbps
Encoded date : UTC 2010-03-27 10:26:53
Tagged date : UTC 2010-03-27 10:26:53

Video
ID : 1
Format : AVC
Format/Info : Advanced Video Codec
Format profile : High@L3.1
Format settings, CABAC : Yes
Format settings, ReFrames : 4 frames
Codec ID : avc1
Codec ID/Info : Advanced Video Coding
Duration : 2h 4mn
Bit rate mode : Variable
Bit rate : 1 500 Kbps
Maximum bit rate : 5 530 Kbps
Width : 688 pixels
Height : 384 pixels
Display aspect ratio : 16:9
Frame rate mode : Constant
Frame rate : 25.000 fps
Color space : YUV
Chroma subsampling : 4:2:0
Bit depth : 8 bits
Scan type : Progressive
Bits/(Pixel*Frame) : 0.227
Stream size : 1.30 GiB (94%)
Writing library : x264 core 89 r1471kGIT 1144615
Encoding settings : cabac=1 / ref=4 / deblock=1:-1:-1 / analyse=0x3:0x113 / me=umh / subme=7 / psy=1 / psy_rd=1.00:0.00 / mixed_ref=0 / me_range=20 / chroma_me=1 / trellis=0 / 8x8dct=1 / cqm=0 / deadzone=21,10 / fast_pskip=0 / chroma_qp_offset=-3 / threads=3 / sliced_threads=0 / nr=0 / decimate=1 / interlaced=0 / constrained_intra=0 / bframes=3 / b_pyramid=0 / b_adapt=1 / b_bias=0 / direct=1 / wpredb=1 / wpredp=2 / keyint=250 / keyint_min=25 / scenecut=40 / intra_refresh=0 / rc_lookahead=50 / rc=cbr / mbtree=1 / bitrate=1500 / ratetol=1.5 / qcomp=0.60 / qpmin=10 / qpmax=51 / qpstep=4 / vbv_maxrate=16000 / vbv_bufsize=12000 / ip_ratio=1.30 / aq=1:0.70 / pulldown=0 / nal_hrd=none
Encoded date : UTC 2010-03-27 08:16:21
Tagged date : UTC 2010-03-27 10:28:26

Audio
ID : 2
Format : AAC
Format/Info : Advanced Audio Codec
Format profile : LC
Codec ID : 40
Duration : 2h 4mn
Bit rate mode : Variable
Bit rate : 96.0 Kbps
Maximum bit rate : 117 Kbps
Channel(s) : 2 channels
Channel positions : Front: L R
Sampling rate : 48.0 KHz
Compression mode : Lossy
Stream size : 86.0 MiB (6%)
Language : English
Encoded date : UTC 2010-03-27 10:28:18
Tagged date : UTC 2010-03-27 10:28:26

http://www.fshare.vn/file/TA634SDFDT