PDA

View Full Version : [FSHARE] Tổng hợp cc chặng đua F1 ma giải 2009 (x264, BBC)



b.a.n.n.e.r
05-30-2014, 11:08 AM
Round 01: Australia

http://i.imgur.com/en7Ihgl.jpg

Format : MPEG-4
Format profile : Base Media
Codec ID : isom
File size : 1.80 GiB
Duration : 2h 5mn
Overall bit rate : 2 050 Kbps
Encoded date : UTC 2009-03-28 08:34:50
Tagged date : UTC 2009-03-28 08:34:50

Video
ID : 1
Format : AVC
Format/Info : Advanced Video Codec
Format profile : High@L3.1
Format settings, CABAC : Yes
Format settings, ReFrames : 3 frames
Codec ID : avc1
Codec ID/Info : Advanced Video Coding
Duration : 2h 5mn
Bit rate mode : Variable
Bit rate : 1 884 Kbps
Maximum bit rate : 4 165 Kbps
Width : 704 pixels
Height : 384 pixels
Display aspect ratio : 16:9
Frame rate mode : Constant
Frame rate : 25.000 fps
Color space : YUV
Chroma subsampling : 4:2:0
Bit depth : 8 bits
Scan type : Progressive
Bits/(Pixel*Frame) : 0.279
Stream size : 1.65 GiB (92%)
Writing library : x264 core 67 r1127M 8d82fec
Encoding settings : cabac=1 / ref=3 / deblock=1:-1:-1 / analyse=0x3:0x113 / me=umh / subme=7 / psy_rd=1.0:0.0 / mixed_ref=1 / me_range=16 / chroma_me=1 / trellis=0 / 8x8dct=1 / cqm=2 / deadzone=21,10 / chroma_qp_offset=-2 / threads=4 / nr=0 / decimate=1 / mbaff=0 / bframes=3 / b_pyramid=1 / b_adapt=1 / b_bias=0 / direct=3 / wpredb=1 / keyint=250 / keyint_min=25 / scenecut=40 / rc=crf / crf=22.0 / qcomp=0.60 / qpmin=10 / qpmax=51 / qpstep=4 / vbv_maxrate=17500 / vbv_bufsize=14000 / ip_ratio=1.30 / pb_ratio=1.20 / aq=1:0.70
Encoded date : UTC 2009-03-28 06:44:10
Tagged date : UTC 2009-03-28 08:37:07

Audio
ID : 2
Format : AAC
Format/Info : Advanced Audio Codec
Format profile : LC
Codec ID : 40
Duration : 2h 5mn
Bit rate mode : Variable
Bit rate : 162 Kbps
Maximum bit rate : 180 Kbps
Channel(s) : 2 channels
Channel positions : Front: L R
Sampling rate : 48.0 KHz
Compression mode : Lossy
Stream size : 146 MiB (8%)
Encoded date : UTC 2009-03-28 08:35:39
Tagged date : UTC 2009-03-28 08:37:07

http://www.fshare.vn/file/TZZR3QNBXT