PDA

View Full Version : [FSHARE] PTU (2003) mHD x264 DTS 2AUDIO-WAF



yaua121
03-03-2014, 08:34 AM
PTU - Police Tactical Unit (2003) mHD x264 DTS 2AUDIO-WAF
Đặc Cảnh Tin Phong

http://i.imgur.com/YvorIxy.jpg

tt0250638

General
Format : Matroska
Format version : Version 2
File size : 2.05 GiB
Duration : 1h 27mn
Overall bit rate : 3 342 Kbps
Encoded date : UTC 2011-08-02 00:57:55
Writing application : mkvmerge v4.9.1 ('Ich will') 编译于 Jul 11 2011 23:53:15
Writing library : libebml v1.2.1 + libmatroska v1.1.1

Video
ID : 1
Format : AVC
Format/Info : Advanced Video Codec
Format profile : High@L4.1
Format settings, CABAC : Yes
Format settings, ReFrames : 4 frames
Muxing mode : Header stripping
Codec ID : V_MPEG4/ISO/AVC
Duration : 1h 27mn
Bit rate : 1 949 Kbps
Width : 1 280 pixels
Height : 544 pixels
Display aspect ratio : 2.35:1
Frame rate mode : Constant
Frame rate : 24.000 fps
Color space : YUV
Chroma subsampling : 4:2:0
Bit depth : 8 bits
Scan type : Progressive
Bits/(Pixel*Frame) : 0.117
Stream size : 1.15 GiB (56%)
Writing library : x264 core 114 r1924 08d04a4
Default : Yes
Forced : No

Audio #1
ID : 2
Format : AC-3
Format/Info : Audio Coding 3
Mode extension : CM (complete main)
Format settings, Endianness : Big
Muxing mode : Header stripping
Codec ID : A_AC3
Duration : 1h 27mn
Bit rate mode : Constant
Bit rate : 640 Kbps
Channel(s) : 6 channels
Channel positions : Front: L C R, Side: L R, LFE
Sampling rate : 48.0 KHz
Bit depth : 16 bits
Compression mode : Lossy
Stream size : 402 MiB (19%)
Title : Mandarin
Language : Chinese
Default : Yes
Forced : No

Audio #2
ID : 3
Format : DTS
Format/Info : Digital Theater Systems
Mode : 16
Format settings, Endianness : Big
Muxing mode : Header stripping
Codec ID : A_DTS
Duration : 1h 27mn
Bit rate mode : Constant
Bit rate : 755 Kbps
Channel(s) : 6 channels
Channel positions : Front: L C R, Side: L R, LFE
Sampling rate : 48.0 KHz
Bit depth : 24 bits
Compression mode : Lossy
Stream size : 474 MiB (23%)
Title : Cantonese
Language : Chinese
Default : No
Forced : No



Trong một buối tối trn đường phố Hong Kong, khi bng đm trn về biết bao điều sẽ xảy ra. Trong đ c việc mất sng của một cảnh st, cả một nhm biệt động gip ng tm lại cy sng trước 4h sng. Nhưng lc ny họ nhận ra sự việc dnh lu đến cả ci chết của một đứa con cưng của trm x hội đen. Liệu những g đang được che giấu sau mn đm kia? Tại sao người cảnh st lại mất sng? B ẩn g sau ci chết của đứa con cưng ng trm?


http://i.imgur.com/zyepkeS.jpg



http://youtu.be/4oOSF3P5U5I


http://www.fshare.vn/file/TQZKZWYS4T

http://www.fshare.vn/file/TX3S0HJ9XT