PDA

View Full Version : [FSHARE] Tiểu Tử Thiếu Lm [Trilogy] (1994-1996) DVDRip - Lồng Tiếng + Thuyết Minh



yaua121
02-21-2014, 09:34 AM
Shaolin Popey 1 (1994) DVDRip - Lồng Tiếng
Tiểu Tử Thiếu Lm - Phần 1

http://i.imgur.com/6MppUCv.jpg

tt0111765

General
Format : MPEG-4
Format profile : Base Media / Version 2
Codec ID : mp42
File size : 1.05 GiB
Duration : 1h 26mn
Overall bit rate mode : Variable
Overall bit rate : 1 726 Kbps
Encoded date : UTC 2013-12-31 06:17:42
Tagged date : UTC 2013-12-31 06:17:42
gsst : 0
gstd : 5201291
gssd : B2A700945HH1392476251930336
gshh : r2---sn-42u-nbor.googlevideo.com

Video
ID : 1
Format : AVC
Format/Info : Advanced Video Codec
Format profile : High@L3.1
Format settings, CABAC : Yes
Format settings, ReFrames : 1 frame
Codec ID : avc1
Codec ID/Info : Advanced Video Coding
Duration : 1h 26mn
Bit rate : 1 579 Kbps
Maximum bit rate : 5 300 Kbps
Width : 1 280 pixels
Height : 720 pixels
Display aspect ratio : 16:9
Frame rate mode : Constant
Frame rate : 29.970 fps
Color space : YUV
Chroma subsampling : 4:2:0
Bit depth : 8 bits
Scan type : Progressive
Bits/(Pixel*Frame) : 0.057
Stream size : 979 MiB (92%)
Tagged date : UTC 2013-12-31 06:24:19

Audio
ID : 2
Format : AAC
Format/Info : Advanced Audio Codec
Format profile : LC
Codec ID : 40
Duration : 1h 26mn
Bit rate mode : Variable
Bit rate : 144 Kbps
Maximum bit rate : 150 Kbps
Channel(s) : 1 channel
Channel positions : Front: C
Sampling rate : 44.1 KHz
Compression mode : Lossy
Stream size : 89.3 MiB (8%)
Title : IsoMedia File Produced by Google, 5-11-2011
Encoded date : UTC 2013-12-31 06:21:07
Tagged date : UTC 2013-12-31 06:24:19

Chng học sinh trung học Shao Ting thầm 'say nắng' Ann - c nng xinh nhất trường, lại l chu gi của hiệu trưởng. Chỉ c điều c nng đang hẹn h với tay đầu gấu trong trường. Shao Tinh cả gan tiếp cận c nng, điều ny khiến cho g bạn trai của c nổi giận.

Trong chuyến đi tới Đại lục cng gia đnh, Shao Ting gặp hai ch tiểu nghịch ngợm. Vừa trở về Hong Kong, Shao Ting nhận tin dữ: Ann bị bắt cc. Liệu với sự gip đỡ của hai tiểu tử Thiếu Lm, cậu c giải cứu được cho người mnh yu thương?


http://i.imgur.com/7VCx7kj.jpg

http://www.fshare.vn/file/T308V35DKT

yaua121
02-21-2014, 09:38 AM
Shaolin Popey 2 (1994) DVDRip - Thuyết Minh
Tiểu Tử Thiếu Lm - Phần 2

http://i.imgur.com/0KZeI4Z.jpg

tt0111766

General
Format : MPEG-4
Format profile : Base Media / Version 2
Codec ID : mp42
File size : 1.16 GiB
Duration : 1h 29mn
Overall bit rate mode : Variable
Overall bit rate : 1 845 Kbps
Encoded date : UTC 2013-12-13 18:21:06
Tagged date : UTC 2013-12-13 18:21:06
gsst : 0
gstd : 5380898
gssd : B2A750A05HH1392517174690767
gshh : r2---sn-42u-nbo6.googlevideo.com

Video
ID : 1
Format : AVC
Format/Info : Advanced Video Codec
Format profile : High@L3.1
Format settings, CABAC : Yes
Format settings, ReFrames : 1 frame
Codec ID : avc1
Codec ID/Info : Advanced Video Coding
Duration : 1h 29mn
Bit rate : 1 650 Kbps
Maximum bit rate : 5 013 Kbps
Width : 1 280 pixels
Height : 720 pixels
Display aspect ratio : 16:9
Frame rate mode : Constant
Frame rate : 29.970 fps
Color space : YUV
Chroma subsampling : 4:2:0
Bit depth : 8 bits
Scan type : Progressive
Bits/(Pixel*Frame) : 0.060
Stream size : 1.03 GiB (89%)
Tagged date : UTC 2013-12-13 18:27:55

Audio
ID : 2
Format : AAC
Format/Info : Advanced Audio Codec
Format profile : LC
Codec ID : 40
Duration : 1h 29mn
Bit rate mode : Variable
Bit rate : 192 Kbps
Maximum bit rate : 202 Kbps
Channel(s) : 2 channels
Channel positions : Front: L R
Sampling rate : 44.1 KHz
Compression mode : Lossy
Stream size : 123 MiB (10%)
Title : IsoMedia File Produced by Google, 5-11-2011
Encoded date : UTC 2013-12-13 18:24:45
Tagged date : UTC 2013-12-13 18:27:55

Hai st thủ Red Lemon v Yellow Lemon được cử đến Long Viện để hnh thch sư cụ trụ tr. Cả hai m mưu chặt bn tay của trụ tr, tương truyền mang sức mạnh kỳ b. Khng ngờ, tại Long Viện, chng chạm trn hai ch tiểu với đủ tr tinh qui. m mưu thm độc ny liệu c thnh cng, khi chng v tnh chạm trn phải hai tiểu tử siu quậy ny?


http://i.imgur.com/j3klqYO.jpg

http://www.fshare.vn/file/TK5FWKS0QT

yaua121
02-21-2014, 09:42 AM
Dragon From Shaolin (1996) DVDRip - Lồng Tiếng
Tiểu Tử Thiếu Lm - Phần 3

http://i.imgur.com/c1K6BeY.jpg

tt0116135

General
Format : AVI
Format/Info : Audio Video Interleave
File size : 898 MiB
Duration : 1h 29mn
Overall bit rate : 1 406 Kbps
Writing application : MEncoder Sherpya-r20258-MinGW-4.1.1
Writing library : MPlayer

Video
ID : 0
Format : MPEG-4 Visual
Format profile : Advanced Simple@L5
Format settings, BVOP : 2
Format settings, QPel : No
Format settings, GMC : No warppoints
Format settings, Matrix : Default (H.263)
Codec ID : XVID
Codec ID/Hint : XviD
Duration : 1h 29mn
Bit rate : 1 264 Kbps
Width : 720 pixels
Height : 480 pixels
Display aspect ratio : 4:3
Original display aspect ratio : 3:2
Frame rate : 29.970 fps
Standard : NTSC
Color space : YUV
Chroma subsampling : 4:2:0
Bit depth : 8 bits
Scan type : Progressive
Compression mode : Lossy
Bits/(Pixel*Frame) : 0.122
Stream size : 807 MiB (90%)
Writing library : XviD 1.1.0 (UTC 2005-11-22)

Audio
ID : 1
Format : MPEG Audio
Format version : Version 1
Format profile : Layer 3
Mode : Joint stereo
Mode extension : MS Stereo
Codec ID : 55
Codec ID/Hint : MP3
Duration : 1h 29mn
Bit rate mode : Constant
Bit rate : 128 Kbps
Channel(s) : 2 channels
Sampling rate : 48.0 KHz
Compression mode : Lossy
Delay relative to video : 33ms
Stream size : 81.6 MiB (9%)
Alignment : Aligned on interleaves
Interleave, duration : 24 ms (0.72 video frame)
Interleave, preload duration : 504 ms



Tiểu Long l một mn tăng nhỏ tuổi c ti năng v thuật bẩm sinh của Thiếu Lm. Để rn luyện kinh nghiệm cho Tiểu Long, sư phụ cho php Tiểu Long v Đại sư huynh của cậu hạ sơn.
V tnh, hai sư huynh đệ vướng vo cuộc săn lng v tranh ginh mn cổ vật của nhm tội phạm quốc tế v tay săn tiền thưởng lang thang...


http://i.imgur.com/1qBsLpN.jpg

http://www.fshare.vn/file/TQFM71VQQT

Chu Văn
06-15-2014, 07:14 PM
fim củ nhưng coi vẫn hay :D
thank bạn!

mr_keobeo
08-07-2014, 06:19 PM
Film cũ nhưng rất hay.... Hồi nhỏ cười đau cả bụng....
Cảm ơn thớt!