PDA

View Full Version : [MULTI] [Phiêu lưu | Giả sử | Vơ thuật] Journey to the West Conquering the Demons 2013 720p HDRip DD2.0 x264 - Tân Tây Du Kư



cuongbienhoa
04-07-2013, 04:11 PM
Journey to the West Conquering the Demons 2013 720p HDRip DD2.0 x264

http://imageshack.us/a/img21/3370/18721654.jpg

Format : Matroska
Format version : Version 2
File size : 3.31 GiB
Duration : 1h 49mn
Overall bit rate : 4 316 Kbps
Writing application : Lavf54.6.100
Writing library : Lavf54.6.100

Video
ID : 1
Format : AVC
Format/Info : Advanced Video Codec
Format profile : Main@L3.1
Format settings, CABAC : Yes
Format settings, ReFrames : 4 frames
Codec ID : V_MPEG4/ISO/AVC
Duration : 1h 49mn
Bit rate : 4 199 Kbps
Width : 1 280 pixels
Height : 720 pixels
Display aspect ratio : 16:9
Frame rate mode : Constant
Frame rate : 29.970 fps
Color space : YUV
Chroma subsampling : 4:2:0
Bit depth : 8 bits
Scan type : Progressive
Bits/(Pixel*Frame) : 0.152
Stream size : 3.15 GiB (95%)
Writing library : x264 core 125
Encoding settings : cabac=1 / ref=2 / deblock=1:0:0 / analyse=0x1:0x131 / me=hex / subme=6 / psy=1 / psy_rd=1.00:0.00 / mixed_ref=1 / me_range=16 / chroma_me=1 / trellis=0 / 8x8dct=0 / cqm=0 / deadzone=21,11 / fast_pskip=1 / chroma_qp_offset=-2 / threads=2 / lookahead_threads=1 / sliced_threads=0 / nr=0 / decimate=1 / interlaced=0 / bluray_compat=0 / constrained_intra=0 / bframes=2 / b_pyramid=2 / b_adapt=0 / b_bias=0 / direct=3 / weightb=1 / open_gop=0 / weightp=2 / keyint=50 / keyint_min=25 / scenecut=40 / intra_refresh=0 / rc_lookahead=40 / rc=abr / mbtree=1 / bitrate=4199 / ratetol=1.0 / qcomp=0.60 / qpmin=6 / qpmax=51 / qpstep=4 / vbv_maxrate=10000 / vbv_bufsize=10000 / nal_hrd=none / ip_ratio=1.40 / aq=1:1.00
Default : Yes
Forced : No

Audio
ID : 2
Format : AC-3
Format/Info : Audio Coding 3
Mode extension : CM (complete main)
Format settings, Endianness : Big
Codec ID : A_AC3
Duration : 1h 49mn
Bit rate mode : Constant
Bit rate : 128 Kbps
Channel(s) : 2 channels
Channel positions : Front: L R
Sampling rate : 44.1 KHz
Bit depth : 16 bits
Compression mode : Lossy
Delay relative to video : -67ms
Stream size : 101 MiB (3%)
Default : Yes
Forced : No

http://www.imdb.com/title/tt2017561

Journey To The West Conquering The Demons 2013 720p DD2.0 x264
Tên phim gốc: Journey to the West: Conquering The Demons / 西游•降魔篇
Tên Việt Khác: Tây Du Kí Thu Phục Thiên Ma
Đạo diễn: Châu Tinh Tŕ, Quách Tử Kiện
Kịch bản: Châu Tinh Tŕ
Ngày phát hành: 7/2/2013 (Trung Quốc), 22/2/2013 (Việt Nam)
Thể loại: Hài – Phiêu lưu – Giả tưởng
Thời lượng: 120 phút
Nước sản xuất: Trung Quốc
Hăng sản xuất: Bingo Group, CJ Entertainment, China Film Group, EDKO Film

Các diễn viên chính:
* Văn Chương … Đường Tam Tạng
* Thư Kỳ … Bạch Cốt Tinh
* Hoàng Bột … Tôn Ngộ Không
* La Chí Tường … Hư Không công tử
* Lư Thượng Chính … Sa Tăng

Vào đời Đường khi mọi nơi c̣n ch́m trong u mê hoang lạc, yêu ma hoành hành, gây thống khổ cho dân lành, vị cao tăng Đường Huyền Trang đă quyết định vượt muôn vàn hiểm trở để đến Tây Trúc thỉnh kinh. Trên đường đi, Huyền Trang đă thu phục và dùng t́nh thương để cảm hóa ba đồ đệ là Ngộ Không, Bát Giới và Sa Tăng. Bốn thầy tṛ vượt muôn vàn gian lao để cứu nhân độ thế, với ước nguyện thỉnh kinh và tu thành chánh quả.[/size]

[size=4]Bối cảnh phim bắt đầu tại một làng chài, nơi người dân bất ngờ bị đe dọa bởi một con thủy quái. Pháp sư trừ tà trẻ tuổi Trần Huyền Trang (Văn Chương thủ vai) được chờ đợi sẽ là cứu tinh của dân làng, song anh lại làm tất cả thất vọng khi vũ khí diệt yêu là một cuốn sách… 300 bài hát thiếu nhi, với hy vọng sẽ đánh thức phần “chân – thiện – mỹ” trong ḷng thủy quái.


http://t.imgbox.com/abqs0T55.jpg (http://imgbox.com/abqs0T55) http://t.imgbox.com/adn06J0t.jpg (http://imgbox.com/adn06J0t) http://t.imgbox.com/aceMbRsb.jpg (http://imgbox.com/aceMbRsb) http://t.imgbox.com/abshpihE.jpg (http://imgbox.com/abshpihE) http://t.imgbox.com/adm4mUlP.jpg (http://imgbox.com/adm4mUlP) http://t.imgbox.com/abkIqsk0.jpg (http://imgbox.com/abkIqsk0) http://t.imgbox.com/aczUfXZY.jpg (http://imgbox.com/aczUfXZY) http://t.imgbox.com/aduZbNuz.jpg (http://imgbox.com/aduZbNuz) http://t.imgbox.com/abe03Dec.jpg (http://imgbox.com/abe03Dec) http://t.imgbox.com/adrFYmB7.jpg (http://imgbox.com/adrFYmB7) http://t.imgbox.com/acpQv1lU.jpg (http://imgbox.com/acpQv1lU) http://t.imgbox.com/acjwF4Ym.jpg (http://imgbox.com/acjwF4Ym)



http://youtu.be/aelriSQLqkc

1 Link/ 3.31G
http://www.fshare.vn/file/TFCX8Q5CRT

4Shared.com

http://www.4shared.com/folder/f-XVxc4A/Tn_Ty_Du_K_HDRip.html

200M/ Link - 5% Recovery Record - Links are interchangeable
http://www.mediafire.com/?9u1b3kfs9bznr
Tạo acc MF >> Save file về acc >> Download file bằng acc của ḿnh

PutLocker

http://www.putlocker.com/file/1CDEF95ABF9BC65B
http://www.putlocker.com/file/17E9BCDD033D5D21
http://www.putlocker.com/file/BA3DA81DC12F22BB
http://www.putlocker.com/file/43ED47D6E3BF2531
http://www.putlocker.com/file/DE0D4448E75E90E5
http://www.putlocker.com/file/0B7CDCF7CF4D9862
http://www.putlocker.com/file/5EEF9F0C5CD9FA48
http://www.putlocker.com/file/D5F62A0CFE4CF2A8
http://www.putlocker.com/file/0946757EF1314C61
http://www.putlocker.com/file/B5FAF2BC73368B78
http://www.putlocker.com/file/7320579A3893F704
http://www.putlocker.com/file/906F1E2A9825815B
http://www.putlocker.com/file/A8086E5E0B27BA95
http://www.putlocker.com/file/38158DA80B790A4F
http://www.putlocker.com/file/AE466761F77DA3E6
http://www.putlocker.com/file/0ED7BCF9541E8287
http://www.putlocker.com/file/B326F6770A1FE4C5
http://www.putlocker.com/file/2B6DD1AB90C320CA
http://www.putlocker.com/file/313FF85D70E7E81D
http://www.putlocker.com/file/55ABCAEC09671DC1

Nguồn HDVNbits.org (by by worldwar09)
http://www.fshare.vn/file/TYFV9WY34T/